Episode 491
lesbian scat party
Loading...
Loading...
Loading...

18+ In The Fade 2018 Movies HDRip x264 5 1 ESubs with Sample ☻rDX☻

Seeders: 1
Leechers: 3
Completed: n/a

Age: 3 minutes    Visits: 0    Category: Movies    Size: 847.0 MB

Posted by: nehalpuja    Comments: Read Comments

Info Hash: D4F20A2634E387218C1D2939B383CFD4B1F19EE4



Now You Can Download Torrents From Kat.cr, Kickasstorrent Very Easily



Torrent Description



18+ In The Fade 2018 Movies HDRip x264 5.1 ESubs with Sample ☻rDX☻
===============================================================================================

SCREEN SHOTS:



or

http://iphonehosting.eu/2018/4/bankaccount/1.html

File size : 839 MiB
Duration : 1 h 46 min
Overall bit rate : 1 105 kb/s
Movie name : 18+ In The Fade 2018 Movies HDRip x264 5.1 ESubs ☻rDX☻

Video
ID : 2
Format : AVC
Format/Info : Advanced Video Codec
Format profile : [email protected]
Format settings, CABAC : Yes
Format settings, ReFrames : 2 frames
Format settings, GOP : M=1, N=12
Codec ID : V_MPEG4/ISO/AVC
Duration : 1 h 46 min
Bit rate mode : Constant
Bit rate : 722 kb/s
Width : 720 pixels
Height : 304 pixels
Display aspect ratio : 2.35:1
Frame rate mode : Constant
Frame rate : 23.976 FPS
Color space : YUV
Chroma subsampling : 4:2:0
Bit depth : 8 bits
Scan type : Progressive
Bits/(Pixel*Frame) : 0.138
Stream size : 531 MiB (63%)
Title : ☻rDX☻
Default : Yes
Forced : No

Audio
ID : 1
Format : AC-3
Format/Info : Audio Coding 3
Mode extension : CM (complete main)
Format settings, Endianness : Big
Codec ID : A_AC3
Duration : 1 h 46 min
Bit rate mode : Constant
Bit rate : 384 kb/s
Channel(s) : 6 channels
Channel positions : Front: L C R, Side: L R, LFE
Sampling rate : 48.0 kHz
Frame rate : 31.250 FPS (1536 spf)
Bit depth : 16 bits
Compression mode : Lossy
Stream size : 292 MiB (35%)
Title : ☻rDX☻
Default : Yes
Forced : No

Text
ID : 3
Format : UTF-8
Codec ID : S_TEXT/UTF8
Codec ID/Info : UTF-8 Plain Text
Title : ☻rDX☻
Default : Yes
Forced : No



IMDB : http://www.imdb.com/title/tt5723272





Recently Added Torrents in Movies

Trackers List

tracker name
udp://tracker.opentrackr.org:1337/announce
udp://tracker.leechers-paradise.org:6969/announce
udp://tracker.pirateparty.gr:6969/announce
udp://tracker.coppersurfer.tk:6969/announce
udp://tracker.mg64.net:2710/announce
udp://tracker.zer0day.to:1337/announce

Sharing Widget


Download torrent
847.0 MB
Seeders: 1
Leechers: 3
18+ In The Fade 2018 Movies HDRip x264 5 1 ESubs with Sample ☻rDX☻