Watch movie
Britney Ever After
Loading...
Loading...
Loading...

American Made(2017)1080p Blu-Ray Rip[DaScubaDude]

Seeders: n/a
Leechers: n/a
Completed: n/a

Age: 2 minutes    Visits: 0    Category: Movies    Size: 3.3 GB

Posted by: dascubadude    Comments: Read Comments

Info Hash: 987B15F78438C4A5DC032232A2F0B77EF0E9A8C5



Now You Can Download Torrents From Kat.cr, Kickasstorrent Very Easily



Torrent Description




[youtube]AEBIJRAkujM[/youtube]
American Made (2017)
R | 1h 55min | Action, Biography, Comedy | 29 September 2017 (USA)
The story of Barry Seal, an American pilot who became a drug-runner for the CIA in the 1980s in a clandestine operation that would be exposed as the Iran-Contra Affair.
Director: Doug Liman
Writer: Gary Spinelli
Stars: Tom Cruise, Domhnall Gleeson, Sarah Wright |
General
Complete name : American Made\American Made T00-1.m4v
Format : MPEG-4
Format profile : Base Media / Version 2
Codec ID : mp42 (isom/iso2/avc1/mp41)
File size : 3.30 GiB
Duration : 1 h 54 min
Overall bit rate mode : Variable
Overall bit rate : 4 110 kb/s
Movie name : American Made
Encoded date : UTC 2018-04-15 23:04:43
Tagged date : UTC 2018-04-15 23:04:43
Writing application : HandBrake 1.0.7 2017040900

Video
ID : 1
Format : AVC
Format/Info : Advanced Video Codec
Format profile : [email protected]
Format settings : CABAC / 4 Ref Frames
Format settings, CABAC : Yes
Format settings, RefFrames : 4 frames
Codec ID : avc1
Codec ID/Info : Advanced Video Coding
Duration : 1 h 54 min
Bit rate : 3 945 kb/s
Width : 1 920 pixels
Height : 1 036 pixels
Display aspect ratio : 1.85:1
Frame rate mode : Variable
Frame rate : 23.976 (24000/1001) FPS
Minimum frame rate : 23.974 FPS
Maximum frame rate : 23.981 FPS
Color space : YUV
Chroma subsampling : 4:2:0
Bit depth : 8 bits
Scan type : Progressive
Bits/(Pixel*Frame) : 0.083
Stream size : 3.17 GiB (96%)
Writing library : x264 core 148 r2708 86b7198
Encoding settings : cabac=1 / ref=2 / deblock=1:0:0 / analyse=0x1:0x111 / me=hex / subme=6 / psy=1 / psy_rd=1.00:0.00 / mixed_ref=1 / me_range=16 / chroma_me=1 / trellis=1 / 8x8dct=0 / cqm=0 / deadzone=21,11 / fast_pskip=1 / chroma_qp_offset=-2 / threads=3 / lookahead_threads=1 / sliced_threads=0 / nr=0 / decimate=1 / interlaced=0 / bluray_compat=0 / constrained_intra=0 / bframes=3 / b_pyramid=2 / b_adapt=1 / b_bias=0 / direct=1 / weightb=1 / open_gop=0 / weightp=1 / keyint=240 / keyint_min=24 / scenecut=40 / intra_refresh=0 / rc_lookahead=30 / rc=crf / mbtree=1 / crf=22.0 / qcomp=0.60 / qpmin=0 / qpmax=69 / qpstep=4 / vbv_maxrate=20000 / vbv_bufsize=25000 / crf_max=0.0 / nal_hrd=none / filler=0 / ip_ratio=1.40 / aq=1:1.00
Encoded date : UTC 2018-04-15 23:04:43
Tagged date : UTC 2018-04-15 23:04:43
Color range : Limited
Color primaries : BT.709
Transfer characteristics : BT.709
Matrix coefficients : BT.709
Menus : 3

Audio
ID : 2
Format : AAC
Format/Info : Advanced Audio Codec
Format profile : LC
Codec ID : mp4a-40-2
Duration : 1 h 54 min
Bit rate mode : Variable
Bit rate : 159 kb/s
Channel(s) : 2 channels
Channel positions : Front: L R
Sampling rate : 48.0 kHz
Frame rate : 46.875 FPS (1024 SPF)
Compression mode : Lossy
Stream size : 130 MiB (4%)
Title : Stereo / Stereo
Language : English
Default : Yes
Alternate group : 1
Encoded date : UTC 2018-04-15 23:04:43
Tagged date : UTC 2018-04-15 23:04:43
Menus : 3

Menu
ID : 3
Codec ID : text
Duration : 1 h 54 min
Language : English
Encoded date : UTC 2018-04-15 23:04:43
Tagged date : UTC 2018-04-15 23:04:43
Menu For : 1,2
00:00:00.000 : Chapter 1
00:05:55.856 : Chapter 2
00:10:38.138 : Chapter 3
00:14:32.038 : Chapter 4
00:21:15.149 : Chapter 5
00:27:20.889 : Chapter 6
00:33:43.230 : Chapter 7
00:40:58.247 : Chapter 8
00:46:11.686 : Chapter 9
00:51:52.776 : Chapter 10
00:54:55.375 : Chapter 11
00:59:53.799 : Chapter 12
01:07:25.375 : Chapter 13
01:13:02.169 : Chapter 14
01:17:08.541 : Chapter 15
01:23:16.867 : Chapter 16
01:26:12.376 : Chapter 17
01:33:30.105 : Chapter 18
01:38:35.118 : Chapter 19
01:46:12.575 : Chapter 20
Bit rate mode : VBR





Recently Added Torrents in Movies

Trackers List

tracker name
udp://tracker.opentrackr.org:1337/announce
udp://tracker.leechers-paradise.org:6969/announce
udp://tracker.pirateparty.gr:6969/announce
udp://tracker.coppersurfer.tk:6969/announce
udp://tracker.mg64.net:2710/announce
udp://tracker.zer0day.to:1337/announce

Sharing Widget


Download torrent
3.3 GB
Seeders: n/a
Leechers: n/a
American Made(2017)1080p Blu-Ray Rip[DaScubaDude]