Plotkara / Gossip Girl
Yakushiji Ryoko no Kaiki Jikenbo
Loading...
Loading...
Loading...

Baaghi 2 (2018) Hindi 720p HDRip x264 AAC 1 4GB[ MovCR]{High Speed Seeding]

Seeders: 146
Leechers: 528
Completed: 326

Age: 8 hours    Visits: 47    Category: Movies    Size: 1.4 GB

Posted by: ictv    Comments: Read Comments

Info Hash: A610794552972122BE5BBCC001B6A5F2903CA523



Now You Can Download Torrents From Kat.cr, Kickasstorrent Very Easily



Torrent Description



Visit  www.movcr.com

Baaghi 2 (2018) Hindi 720p HDRip x264 AAC 1.4GB[ MovCR]



General
Unique ID                                : 235971578971835465940956008223224343393 (0xB18679164E74015084E53C189273AB61)
Complete name                            : [www.MovCR.com] Baaghi 2 (2018) Hindi 720p HDRip x264 AAC [ MovCR]\www.MovCR.com - Baaghi 2 (2018) Hindi 720p HDRip x264 AAC 1.4GB[ MovCR].mkv
Format                                   : Matroska
Format version                           : Version 4 / Version 2
File size                                : 1.40 GiB
Duration                                 : 2 h 23 min
Overall bit rate                         : 1 395 kb/s
Movie name                               : www.MovCR.com
Encoded date                             : UTC 2018-04-16 19:32:55
Writing application                      : mkvmerge v9.5.0 ('Quiet Fire') 64bit
Writing library                          : libebml v1.3.4 + libmatroska v1.4.5

Video
ID                                       : 1
Format                                   : AVC
Format/Info                              : Advanced Video Codec
Format profile                           : [email protected]
Format settings                          : CABAC / 5 Ref Frames
Format settings, CABAC                   : Yes
Format settings, RefFrames               : 5 frames
Codec ID                                 : V_MPEG4/ISO/AVC
Duration                                 : 2 h 23 min
Bit rate                                 : 1 280 kb/s
Width                                    : 1 280 pixels
Height                                   : 720 pixels
Display aspect ratio                     : 16:9
Frame rate mode                          : Constant
Frame rate                               : 15.000 FPS
Color space                              : YUV
Chroma subsampling                       : 4:2:0
Bit depth                                : 8 bits
Scan type                                : Progressive
Bits/(Pixel*Frame)                       : 0.093
Stream size                              : 1.27 GiB (91%)
Title                                    : www.MovCR.com
Writing library                          : x264 core 148 r2643 5c65704
Encoding settings                        : cabac=1 / ref=5 / deblock=1:0:0 / analyse=0x3:0x113 / me=hex / subme=7 / psy=1 / psy_rd=1.00:0.00 / mixed_ref=1 / me_range=16 / chroma_me=1 / trellis=1 / 8x8dct=1 / cqm=0 / deadzone=21,11 / fast_pskip=1 / chroma_qp_offset=-2 / threads=8 / lookahead_threads=8 / sliced_threads=1 / slices=8 / nr=0 / decimate=1 / interlaced=0 / bluray_compat=0 / constrained_intra=0 / bframes=0 / weightp=2 / keyint=250 / keyint_min=15 / scenecut=40 / intra_refresh=0 / rc=abr / mbtree=0 / bitrate=1280 / ratetol=1.0 / qcomp=0.60 / qpmin=0 / qpmax=69 / qpstep=4 / ip_ratio=1.40 / aq=1:1.00
Default                                  : Yes
Forced                                   : No

Audio
ID                                       : 2
Format                                   : AAC
Format/Info                              : Advanced Audio Codec
Format profile                           : LC
Codec ID                                 : A_AAC-2
Duration                                 : 2 h 23 min
Bit rate                                 : 125 kb/s
Channel(s)                               : 2 channels
Channel positions                        : Front: L R
Sampling rate                            : 44.1 kHz
Frame rate                               : 43.066 FPS (1024 SPF)
Compression mode                         : Lossy
Delay relative to video                  : -23 ms
Stream size                              : 129 MiB (9%)
Title                                    : www.MovCR.com
Language                                 : Hindi
Default                                  : Yes
Forced                                   : No
















Recently Added Torrents in Movies

Trackers List

tracker name
udp://tracker.opentrackr.org:1337/announce
udp://tracker.leechers-paradise.org:6969/announce
udp://tracker.pirateparty.gr:6969/announce
udp://tracker.coppersurfer.tk:6969/announce
udp://tracker.mg64.net:2710/announce
udp://tracker.zer0day.to:1337/announce

Sharing Widget


Download torrent
1.4 GB
Seeders: 146
Leechers: 528
Baaghi 2 (2018) Hindi 720p HDRip x264 AAC 1 4GB[ MovCR]{High Speed Seeding]