Inscription
Geoff Pierson
Loading...
Loading...
Loading...

Dawning Of The Dead 2017 HDRip x264 AAC [MW]

Seeders: 1
Leechers: 13
Completed: 3

Age: 1 hour    Visits: 9    Category: Movies    Size: 789.5 MB

Posted by: moviezworldz    Comments: Read Comments

Info Hash: 3413AA10F1EA812E727D4EF03ABF0ABA3D339E62



Now You Can Download Torrents From Kat.cr, Kickasstorrent Very Easily



Torrent Description







General
Format : Matroska
Format version : Version 4 / Version 2
File size : 789 MiB
Duration : 1 h 43 min
Overall bit rate : 1 063 kb/s

Video
ID : 1
Format : AVC
Format/Info : Advanced Video Codec
Format profile : [email protected]
Format settings : CABAC / 4 Ref Frames
Format settings, CABAC : Yes
Format settings, RefFrames : 4 frames
Codec ID : V_MPEG4/ISO/AVC
Duration : 1 h 43 min
Bit rate : 1 000 kb/s
Width : 720 pixels
Height : 304 pixels
Display aspect ratio : 2.35:1
Frame rate mode : Constant
Frame rate : 23.976 (24000/1001) FPS
Color space : YUV
Chroma subsampling : 4:2:0
Bit depth : 8 bits
Scan type : Progressive
Bits/(Pixel*Frame) : 0.191
Stream size : 742 MiB (94%)
Writing library : x264 core 155 r2893 b00bcaf
Default : Yes
Forced : No

Audio
ID : 2
Format : AAC
Format/Info : Advanced Audio Codec
Format profile : HE-AAC / LC
Format settings : Explicit
Codec ID : A_AAC-2
Duration : 1 h 43 min
Bit rate : 62.7 kb/s
Channel(s) : 2 channels
Channel positions : Front: L R
Sampling rate : 48.0 kHz / 24.0 kHz
Frame rate : 23.438 FPS (1024 SPF)
Compression mode : Lossy
Stream size : 46.5 MiB (6%)
Default : Yes
Forced : No
















Recently Added Torrents in Movies

Trackers List

tracker name
udp://tracker.opentrackr.org:1337/announce
udp://tracker.leechers-paradise.org:6969/announce
udp://tracker.pirateparty.gr:6969/announce
udp://tracker.coppersurfer.tk:6969/announce
udp://tracker.mg64.net:2710/announce
udp://tracker.zer0day.to:1337/announce

Sharing Widget


Download torrent
789.5 MB
Seeders: 1
Leechers: 13
Dawning Of The Dead 2017 HDRip x264 AAC [MW]