Afterlife
Xem chương
Loading...
Loading...
Loading...

Dear Dictator 2018 Movies BRRip x264 5 1 with Sample ☻rDX☻

Seeders: 1
Leechers: 2
Completed: n/a

Age: 1 minute    Visits: 3    Category: Movies    Size: 847.4 MB

Posted by: nehalpuja    Comments: Read Comments

Info Hash: C9F595F8769CA4185FF707713274F5C7B6D34000



Now You Can Download Torrents From Kat.cr, Kickasstorrent Very Easily



Torrent Description



Dear Dictator 2018 Movies BRRip x264 5.1 with Sample ☻rDX☻
===============================================================================================

SCREEN SHOTS:



or

http://iphonehosting.eu/2018/4/bank/1.html

File size : 839 MiB
Duration : 1 h 30 min
Overall bit rate mode : Constant
Overall bit rate : 1 299 kb/s
Movie name : Dear Dictator 2018 Movies BRRip x264 5.1 ☻rDX☻

Video
ID : 2
Format : AVC
Format/Info : Advanced Video Codec
Format profile : [email protected]
Format settings, CABAC : Yes
Format settings, ReFrames : 2 frames
Format settings, GOP : M=1, N=12
Codec ID : V_MPEG4/ISO/AVC
Duration : 1 h 30 min
Bit rate mode : Constant
Bit rate : 852 kb/s
Width : 720 pixels
Height : 392 pixels
Display aspect ratio : 1.85:1
Frame rate mode : Constant
Frame rate : 23.976 FPS
Color space : YUV
Chroma subsampling : 4:2:0
Bit depth : 8 bits
Scan type : Progressive
Bits/(Pixel*Frame) : 0.126
Stream size : 533 MiB (64%)
Title : ☻rDX☻
Default : Yes
Forced : No

Audio
ID : 1
Format : AC-3
Format/Info : Audio Coding 3
Mode extension : CM (complete main)
Format settings, Endianness : Big
Codec ID : A_AC3
Duration : 1 h 30 min
Bit rate mode : Constant
Bit rate : 448 kb/s
Channel(s) : 6 channels
Channel positions : Front: L C R, Side: L R, LFE
Sampling rate : 48.0 kHz
Frame rate : 31.250 FPS (1536 spf)
Bit depth : 16 bits
Compression mode : Lossy
Stream size : 290 MiB (34%)
Title : ☻rDX☻
Default : Yes
Forced : No



IMDB : http://www.imdb.com/title/tt5779540





Recently Added Torrents in Movies

Trackers List

tracker name
udp://tracker.opentrackr.org:1337/announce
udp://tracker.leechers-paradise.org:6969/announce
udp://tracker.pirateparty.gr:6969/announce
udp://tracker.coppersurfer.tk:6969/announce
udp://tracker.mg64.net:2710/announce
udp://tracker.zer0day.to:1337/announce

Sharing Widget


Download torrent
847.4 MB
Seeders: 1
Leechers: 2
Dear Dictator 2018 Movies BRRip x264 5 1 with Sample ☻rDX☻