November 2015 (1378)
Naked Fear Unrated DVDRip
Loading...
Loading...
Loading...

Frozen 2013 720p Esub BluRay Dual Audio English Hindi GOPISAHI

Seeders: 1
Leechers: n/a
Completed: 1

Age: 2 minutes    Visits: 0    Category: Movies    Size: 566.8 MB

Posted by: PENDUDESI    Comments: Read Comments

Info Hash: A1CB96283F3FF87E19C8E601A250C093421BC234



Now You Can Download Torrents From Kat.cr, Kickasstorrent Very Easily



Torrent Description





Format : Matroska

Format version : Version 4 / Version 2

File size : 567 MiB

Duration : 1 h 42 min

Overall bit rate : 775 kb/s

Movie name : Frozen 2013 GOPISAHI


Video

Format : AVC

Codec ID : V_MPEG4/ISO/AVC

Duration : 1 h 42 min

Bit rate : 600 kb/s

Width : 1 280 pixels

Height : 568 pixels

Display aspect ratio : 2.25:1

Frame rate mode : Constant

Frame rate : 23.976 (24000/1001) FPS

Stream size : 438 MiB (77%)

Title : GOPISAHI

Writing library : x264 core 148 r2708 86b7198

Encoding settings : cabac=1 / ref=11 / deblock=1:0:0 / analyse=0x1:0x131 / me=umh /


Audio #1

Format : AAC

Duration : 1 h 42 min

Bit rate : 87.8 kb/s

Channel(s) : 6 channels

Channel positions : Front: L C R, Side: L R, LFE

Sampling rate : 44.1 kHz

Frame rate : 43.066 FPS (1024 SPF)

Compression mode : Lossy

Stream size : 64.2 MiB (11%)

Title : GOPISAHI

Language : English


Audio #2

Format : AAC

Duration : 1 h 42 min

Bit rate : 84.8 kb/s

Channel(s) : 6 channels

Channel positions : Front: L C R, Side: L R, LFE

Sampling rate : 44.1 kHz

Frame rate : 43.066 FPS (1024 SPF)

Compression mode : Lossy

Stream size : 62.0 MiB (11%)

Title : GOPISAHI

Language : Hindi


Text

Language : English






Recently Added Torrents in Movies

Trackers List

tracker name
udp://tracker.opentrackr.org:1337/announce
udp://tracker.leechers-paradise.org:6969/announce
udp://tracker.pirateparty.gr:6969/announce
udp://tracker.coppersurfer.tk:6969/announce
udp://tracker.mg64.net:2710/announce
udp://tracker.zer0day.to:1337/announce

Sharing Widget


Download torrent
566.8 MB
Seeders: 1
Leechers: n/a
Frozen 2013 720p Esub BluRay Dual Audio English Hindi GOPISAHI