#20 - The World of The Pros 01-20-2016
Ip Man 2: Legend Of The Grandmaster
Loading...
Loading...
Loading...

[Prof] The Boy and the Beast (1080p x265 HEVC 10bit AAC 5 1 Dual Audio)

Seeders: 12
Leechers: 3
Completed: 92

Age: 4 days    Visits: 50    Category: Anime    Size: 5.0 GB

Posted by: Prof    Comments: Read Comments

Info Hash: AE6626A863F359C6F3877A6E51C41AD044E1E7B6



Now You Can Download Torrents From Kat.cr, Kickasstorrent Very Easily



Torrent Description



Format : Matroska
Format version : Version 4 / Version 2
File size : 5.00 GiB
Duration : 1 h 59 min
Overall bit rate : 6 015 kb/s
Movie name : BoyAndTheBeast
Encoded date : UTC 2018-04-10 14:04:06
Writing application : mkvmerge v9.6.0 ('Slave To Your Mind') 64bit
Writing library : libebml v1.3.4 + libmatroska v1.4.5

Video
ID : 1
Format : HEVC
Format/Info : High Efficiency Video Coding
Format profile : Main [email protected]@Main
Codec ID : V_MPEGH/ISO/HEVC
Duration : 1 h 59 min
Bit rate : 3 377 kb/s
Width : 1 920 pixels
Height : 1 080 pixels
Display aspect ratio : 16:9
Frame rate mode : Constant
Frame rate : 23.976 (24000/1001) FPS
Color space : YUV
Chroma subsampling : 4:2:0
Bit depth : 10 bits
Bits/(Pixel*Frame) : 0.068
Stream size : 2.81 GiB (56%)
Writing library : x265 2.1+69-c97c64ab8b8e:[Windows][GCC 6.2.0][64 bit] 10bit
Encoding settings : cpuid=1173503 / frame-threads=2 / numa-pools=4 / wpp / no-pmode / no-pme / no-psnr / no-ssim / log-level=2 / input-csp=1 / input-res=1920x1080 / interlace=0 / total-frames=171365 / level-idc=0 / high-tier=1 / uhd-bd=0 / ref=4 / no-allow-non-conformance / no-repeat-headers / annexb / no-aud / no-hrd / info / hash=0 / no-temporal-layers / open-gop / min-keyint=23 / keyint=250 / bframes=4 / b-adapt=2 / b-pyramid / bframe-bias=0 / rc-lookahead=25 / lookahead-slices=4 / scenecut=40 / no-intra-refresh / ctu=64 / min-cu-size=8 / rect / no-amp / max-tu-size=32 / tu-inter-depth=1 / tu-intra-depth=1 / limit-tu=0 / rdoq-level=2 / signhide / no-tskip / nr-intra=0 / nr-inter=0 / no-constrained-intra / strong-intra-smoothing / max-merge=3 / limit-refs=3 / limit-modes / me=3 / subme=3 / merange=57 / temporal-mvp / weightp / no-weightb / no-analyze-src-pics / deblock=0:0 / sao / no-sao-non-deblock / rd=4 / no-early-skip / rskip / no-fast-intra / no-tskip-fast / no-cu-lossless / no-b-intra / rdpenalty=0 / psy-rd=2.00 / psy-rdoq=1.00 / no-rd-refine / analysis-mode=0 / no-lossless / cbqpoffs=0 / crqpoffs=0 / rc=crf / crf=18.0 / qcomp=0.60 / qpstep=4 / stats-write=0 / stats-read=0 / ipratio=1.40 / pbratio=1.30 / aq-mode=1 / aq-strength=1.00 / cutree / zone-count=0 / no-strict-cbr / qg-size=32 / no-rc-grain / qpmax=69 / qpmin=0 / sar=0 / overscan=0 / videoformat=5 / range=0 / colorprim=2 / transfer=2 / colormatrix=2 / chromaloc=0 / display-window=0 / max-cll=0,0 / min-luma=0 / max-luma=1023 / log2-max-poc-lsb=8 / vui-timing-info / vui-hrd-info / slices=1 / opt-qp-pps / opt-ref-list-length-pps / no-multi-pass-opt-rps / scenecut-bias=0.05
Default : Yes
Forced : No

Audio #1
ID : 2
Format : AAC
Format/Info : Advanced Audio Codec
Format profile : LC
Codec ID : A_AAC
Duration : 1 h 59 min
Bit rate : 1 356 kb/s
Channel(s) : 6 channels
Channel positions : Front: L C R, Side: L R, LFE
Sampling rate : 96.0 kHz
Frame rate : 93.750 FPS (1024 spf)
Compression mode : Lossy
Delay relative to video : 5 ms
Stream size : 1.13 GiB (23%)
Language : English
Default : Yes
Forced : No

Audio #2
ID : 3
Format : AAC
Format/Info : Advanced Audio Codec
Format profile : LC
Codec ID : A_AAC
Duration : 1 h 59 min
Bit rate : 1 265 kb/s
Channel(s) : 6 channels
Channel positions : Front: L C R, Side: L R, LFE
Sampling rate : 96.0 kHz
Frame rate : 93.750 FPS (1024 spf)
Compression mode : Lossy
Delay relative to video : 5 ms
Stream size : 1.05 GiB (21%)
Language : Japanese
Default : No
Forced : No

Text #1
ID : 4
Format : PGS
Muxing mode : zlib
Codec ID : S_HDMV/PGS
Codec ID/Info : Picture based subtitle format used on BDs/HD-DVDs
Duration : 1 h 57 min
Bit rate : 11.8 kb/s
Count of elements : 3124
Stream size : 9.93 MiB (0%)
Language : English
Default : No
Forced : No

Text #2
ID : 5
Format : PGS
Muxing mode : zlib
Codec ID : S_HDMV/PGS
Codec ID/Info : Picture based subtitle format used on BDs/HD-DVDs
Duration : 1 h 53 min
Bit rate : 427 b/s
Count of elements : 98
Stream size : 357 KiB (0%)
Language : English
Default : No
Forced : No

Menu
00:00:00.000 : en:Chapter 01
00:07:01.421 : en:Chapter 02
00:18:03.457 : en:Chapter 03
00:29:34.230 : en:Chapter 04
00:38:06.784 : en:Chapter 05
00:45:34.815 : en:Chapter 06
00:55:54.392 : en:Chapter 07
01:02:34.834 : en:Chapter 08
01:08:43.536 : en:Chapter 09
01:16:46.893 : en:Chapter 10
01:27:29.494 : en:Chapter 11
01:33:17.341 : en:Chapter 12
01:42:23.262 : en:Chapter 13
01:48:54.194 : en:Chapter 14
01:54:04.671 : en:Chapter 15





Recently Added Torrents in Anime

Trackers List

tracker name
udp://tracker.opentrackr.org:1337/announce
udp://tracker.leechers-paradise.org:6969/announce
udp://tracker.pirateparty.gr:6969/announce
udp://tracker.coppersurfer.tk:6969/announce
udp://tracker.mg64.net:2710/announce
udp://tracker.zer0day.to:1337/announce

Sharing Widget


Download torrent
5.0 GB
Seeders: 12
Leechers: 3
[Prof] The Boy and the Beast (1080p x265 HEVC 10bit AAC 5 1 Dual Audio)