The Jungle Book (El libro de la selva) (2016)
Supergirl HDTV 720p AC3 5.1
Loading...
Loading...
Loading...

The Ninth Gate (1999) BluRay 720p x264 Dual Audio [Hindi - English] AAC Esub ~Katyayan~

Seeders: 2
Leechers: n/a
Completed: 1

Age: 4 minutes    Visits: 1    Category: Movies    Size: 829.7 MB

Posted by: Katyayan    Comments: Read Comments

Info Hash: F267ABC8C33E43056F05A54DB056B8CBF91B8B52



Now You Can Download Torrents From Kat.cr, Kickasstorrent Very Easily



Torrent Description



The Ninth Gate (1999) BluRay 720p x264 Dual Audio [Hindi - English] AAC Esub ~Katyayan~



Thanks To Dredd Bro For Hindi Audio

Format : Matroska
Format version : Version 4 / Version 2
File size : 829 MiB
Duration : 2 h 13 min
Overall bit rate : 870 kb/s
Movie name : The Ninth Gate (1999) BluRay 720p x264 Dual Audio [Hindi - English] AAC Esub ~Katyayan~
Encoded date : UTC 2018-04-16 14:15:09
Writing application : mkvmerge v19.0.0 ('Brave Captain') 32-bit
Writing library : libebml v1.3.5 + libmatroska v1.4.8
Attachments : The Ninth Gate (1999) Poster ~Katyayan~.jpg

Video
ID : 1
Format : AVC
Format/Info : Advanced Video Codec
Format profile : [email protected]
Format settings : CABAC / 4 Ref Frames
Format settings, CABAC : Yes
Format settings, RefFrames : 4 frames
Codec ID : V_MPEG4/ISO/AVC
Duration : 2 h 13 min
Bit rate : 678 kb/s
Width : 1 280 pixels
Height : 536 pixels
Display aspect ratio : 2.35:1
Frame rate mode : Constant
Frame rate : 23.976 (24000/1001) FPS
Color space : YUV
Chroma subsampling : 4:2:0
Bit depth : 8 bits
Scan type : Progressive
Bits/(Pixel*Frame) : 0.041
Stream size : 646 MiB (78%)
Title : The Ninth Gate (1999) BluRay 720p x264 Dual Audio [Hindi - English] AAC Esub ~Katyayan~
Writing library : x264 core 148 r2708 86b7198
Encoding settings : cabac=1 / ref=1 / deblock=1:0:0 / analyse=0x1:0x111 / me=hex / subme=2 / psy=1 / psy_rd=1.00:0.00 / mixed_ref=0 / me_range=16 / chroma_me=1 / trellis=0 / 8x8dct=0 / cqm=0 / deadzone=21,11 / fast_pskip=1 / chroma_qp_offset=0 / threads=3 / lookahead_threads=1 / sliced_threads=0 / nr=0 / decimate=1 / interlaced=0 / bluray_compat=0 / constrained_intra=0 / bframes=3 / b_pyramid=2 / b_adapt=1 / b_bias=0 / direct=1 / weightb=1 / open_gop=0 / weightp=1 / keyint=240 / keyint_min=24 / scenecut=40 / intra_refresh=0 / rc_lookahead=10 / rc=2pass / mbtree=1 / bitrate=678 / ratetol=1.0 / qcomp=0.60 / qpmin=0 / qpmax=69 / qpstep=4 / cplxblur=20.0 / qblur=0.5 / vbv_maxrate=240000 / vbv_bufsize=240000 / nal_hrd=none / filler=0 / ip_ratio=1.40 / aq=1:1.00
Default : Yes
Forced : No
Color range : Limited
Color primaries : BT.709
Transfer characteristics : BT.709
Matrix coefficients : BT.709

Audio #1
ID : 2
Format : AAC
Format/Info : Advanced Audio Codec
Format profile : HE-AAC / LC
Format settings : Explicit
Codec ID : A_AAC-2
Duration : 2 h 13 min
Bit rate : 128 kb/s
Channel(s) : 2 channels
Channel positions : Front: L R
Sampling rate : 48.0 kHz / 24.0 kHz
Frame rate : 23.438 FPS (1024 SPF)
Compression mode : Lossy
Delay relative to video : 2 s 800 ms
Stream size : 122 MiB (15%)
Title : ~Katyayan~
Language : Hindi
Default : Yes
Forced : Yes

Audio #2
ID : 3
Format : AAC
Format/Info : Advanced Audio Codec
Format profile : LC
Codec ID : A_AAC-2
Duration : 2 h 13 min
Bit rate : 61.5 kb/s
Channel(s) : 2 channels
Channel positions : Front: L R
Sampling rate : 48.0 kHz
Frame rate : 46.875 FPS (1024 SPF)
Compression mode : Lossy
Stream size : 58.6 MiB (7%)
Title : ~Katyayan~
Language : English
Default : No
Forced : No

Text
ID : 4
Format : UTF-8
Codec ID : S_TEXT/UTF8
Codec ID/Info : UTF-8 Plain Text
Duration : 2 h 7 min
Bit rate : 41 b/s
Count of elements : 1040
Stream size : 39.2 KiB (0%)
Title : ~Katyayan~
Language : English
Default : Yes
Forced : Yes





Recently Added Torrents in Movies

Trackers List

tracker name
udp://tracker.opentrackr.org:1337/announce
udp://tracker.leechers-paradise.org:6969/announce
udp://tracker.pirateparty.gr:6969/announce
udp://tracker.coppersurfer.tk:6969/announce
udp://tracker.mg64.net:2710/announce
udp://tracker.zer0day.to:1337/announce

Sharing Widget


Download torrent
829.7 MB
Seeders: 2
Leechers: n/a
The Ninth Gate (1999) BluRay 720p x264 Dual Audio [Hindi - English] AAC Esub ~Katyayan~